Home Tutorials Sub Categories: Web Development After Effect Multimedia 3D Graphics Art Design Audio & Music PhotoShop Other Tutorials
David Vu - How to Train your Virtual Assistant for eBay Drop Shipping (2016)

David Vu - How to Train your Virtual Assistant for eBay Drop Shipping
WEBRip | English | MP4 | 1280 x 720 | AVC ~2037 kbps | 29.970 fps
AAC | 59.3 Kbps | 48.0 KHz | 2 channels | ~4 hours | 1.55 GB
Genre: eLearning Video / Business, Net: eBay, Online Auctions

Training Lectures to help you hire & train a Virtual Assistant for your eBay Drop Shipping Business! Extra Profit Videos

"David Vu - How to Train your Virtual Assistant for eBay Drop Shipping (2016)"

HI-SPEED DOWNLOAD
Free 300 GB with Full DSL-Broadband Speed!



David Vu - How to Train your Virtual Assistant for eBay Drop Shipping (2016)

David Vu - How to Train your Virtual Assistant for eBay Drop Shipping
WEBRip | English | MP4 | 1280 x 720 | AVC ~2037 kbps | 29.970 fps
AAC | 59.3 Kbps | 48.0 KHz | 2 channels | ~4 hours | 1.55 GB
Genre: eLearning Video / Business, Net: eBay, Online Auctions

Training Lectures to help you hire & train a Virtual Assistant for your eBay Drop Shipping Business! Extra Profit Videos

About This Course
Published 1/2016 English
Course Description


If you thought my first course was amazing, wait til you see how I "BRING IT" in this course! This is the follow up course to "How I made $100,000 my 1st year selling on Ebay No Inventory"
No long sales letter here, this course is FOR YOU if you are a student of my 1st course and you are ready to scale your business and take it to the next level by outsourcing! I will walk you through the whole process and even help train your V.A. (Employee) for you too!
If you don't think you or your business is worth the investment, then simple; don't make the investment and don't take the course. Thousands of students have messaged me that paid a promo price on the first course say that after they completed it they would have gladly paid full price for it and even feel bad paying a discounted price because of the VALUE. This is a private course for the BEST students from my first course. Students of this course will have my full undivided extra attention smilie

Full details
What are the requirements?
Have an Ebay Store
Have an Automated Email System
Making minimum $500 profit per month
Have a minimum of 500 listings in your eBay store
What am I going to get from this course?
Learn How, Why, & Where to Hire a Virtual Assistant
Effectively Hire your first Virtual Assistant with this Course and Build out your team!
Scale your current Drop Shipping Business
Build a Team for your current Ebay Drop Shipping Business
Limit yourself to working less, so you can enjoy more in life!

Full details
What is the target audience?
Anyone who is currently running an E-Bay Store Drop Shipping
Making Minimun $500 per month consistently
Minimum 500 listings that you created yourself

also You can watch my other last: MediaInfo: General
Complete name : 5.2 VA Welcome Video.mp4
Format
: MPEG-4
Format profile : Base Media
Codec ID
: isom
File size
: 96.2 MiB
Duration
: 6mn 24s
Overall bit rate mode : Variable
Overall bit rate : 2 099 Kbps
Encoded date : UTC 2016-01-23 20:34:15
Tagged date
: UTC 2016-01-23 20:34:15

Video
ID : 1
Format
: AVC
Format/Info
: Advanced Video Codec
Format profile : [email protected]
Format settings, CABAC : No
Format settings, ReFrames : 3 frames
Codec ID
: avc1
Codec ID/Info : Advanced Video Coding
Duration
: 6mn 24s
Bit rate
: 2 037 Kbps
Maximum bit rate : 3 639 Kbps
Width
: 1 280 pixels
Height
: 720 pixels
Display aspect ratio : 16:9
Frame rate mode : Constant
Frame rate
: 29.970 fps
Color space
: YUV
Chroma subsampling

: 4:2:0
Bit depth
: 8 bits
Scan type
: Progressive
Bits/(Pixel*Frame)

: 0.074
Stream size
: 93.4 MiB (97%)
Writing library : Zencoder Video Encoding System
Encoded date : UTC 2016-01-23 20:31:56
Tagged date
: UTC 2016-01-23 20:34:15
Color primaries : BT.709
Transfer characteristics : BT.709
Matrix coefficients : BT.709

Audio
ID : 2
Format
: AAC
Format/Info
: Advanced Audio Codec
Format profile : LC
Codec ID
: 40
Duration
: 6mn 24s
Bit rate mode : Variable
Bit rate
: 59.3 Kbps
Maximum bit rate : 101 Kbps
Channel(s)
: 2 channels
Channel positions: Front: L R
Sampling rate : 48.0 KHz
Compression mode : Lossy
Stream size
: 2.72 MiB (3%)
Encoded date : UTC 2016-01-23 20:31:56
Tagged date
: UTC 2016-01-23 20:34:15



David Vu - How to Train your Virtual Assistant for eBay Drop Shipping (2016)
David Vu - How to Train your Virtual Assistant for eBay Drop Shipping (2016)
David Vu - How to Train your Virtual Assistant for eBay Drop Shipping (2016)
David Vu - How to Train your Virtual Assistant for eBay Drop Shipping (2016)


DOWNLOAD:


P A S S W O R D    P R O T E C T E D ! 
PASSWORD WILL BE PUBLISHED HERE TOMORROW!
 PLEASE ADD PAGE TO YOUR FAVORITS

Free 300 GB with 10 GB High-Speed(No Password BACKUP)


Hide Your IP & Protect Your Privacy!
Get Your 15 Day Free Trial Now.



David Vu - How to Train your Virtual Assistant for eBay Drop Shipping (2016) Fast Download via Rapidshare Upload Filehosting Megaupload, David Vu - How to Train your Virtual Assistant for eBay Drop Shipping (2016) Torrents and Emule Download or anything related.
Category: Tutorials | Keywords: David, Train, your, Virtual, Assistant, eBay, Drop, Shipping Go Back

Citibank AND appster.org |"Chase Mobile" AND appster.org |"Chase Mobile" AND stackoverflow.c om |"Chase Mobile" AND github.com |"Chase Mobile" AND iosmobileapp.co m |"Chase Mobile" AND appster.org |